(Drum & Bass) [CD] DJ Tapolsky and Redco feat Alexa - Ранком - 2007, FLAC (image+.cue), lossless 

Цитировать
Tapolsky and Redco feat Alexa / Ранком
Жанр: Drum & Bass
Носитель: CD
Страна-производитель диска (релиза): Украина
Год издания: 2007
Издатель (лейбл): ТМ "Фрагменти"
Номер по каталогу: ФРГМНТ053
Страна исполнителя (группы): Украина
Аудиокодек: FLAC (*.flac)
Тип рипа: image+.cue
Битрейт аудио: lossless
Продолжительность: 01:14:07
Источник (релизер): собственный рип
Наличие сканов в содержимом раздачи: да
Треклист:
1. Ранком (5:33)
2. Время/Солнце (3:13)
3. До Зiрок (4:13)
4. Чекай (3:43)
5. DNB Producer (5:57)
6. Ритм (4:51)
7. Time 2 Bass (3:25)
8. Flame (6:25)
9. DNB Producer feat Diнамiт (5:57)
10. Higher (3:51)
11. Life's 1 (3:55)
12. Казка (3:33)
13. Ранком VIP (5:43)
14. Ранком (Slava Flash Mix) (6:54)
15. Ранком (Ottosiderspunk Mix) (6:48)

Лог создания рипа

Exact Audio Copy V1.3 from 2. September 2016
Отчёт EAC об извлечении, выполненном 23. октября 2018, 23:11
Tapolsky / Rankom
Дисковод: ASUS SBW-06C2X-U Adapter: 1 ID: 2
Режим чтения : ДостоверностьИспользование точного потока : ДаОтключение кэша аудио : ДаИспользование указателей C2 : Нет
Коррекция смещения при чтении : 48Способность читать области Lead-in и Lead-out : НетЗаполнение пропущенных сэмплов тишиной : ДаУдаление блоков с тишиной в начале и конце : НетПри вычислениях CRC использовались нулевые сэмплы : ДаИнтерфейс : Встроенный Win32-интерфейс для Win NT/2000
Выходной формат : Пользовательский кодировщикВыбранный битрейт : 1024 kBit/sКачество : ВысокийДобавление ID3-тега : НетУтилита сжатия : C:\Program Files (x86)\Exact Audio Copy\FLAC\FLAC.EXEДополнительные параметры : -V -8 -T "Date=%year%" -T "Genre=%genre%" %source%
TOC извлечённого CD
Трек | Старт | Длительность | Начальный сектор | Конечный сектор --------------------------------------------------------------------- 1 | 0:00.00 | 5:33.08 | 0 | 24982 2 | 5:33.08 | 3:13.60 | 24983 | 39517 3 | 8:46.68 | 4:13.47 | 39518 | 58539 4 | 13:00.40 | 3:43.58 | 58540 | 75322 5 | 16:44.23 | 5:57.41 | 75323 | 102138 6 | 22:41.64 | 4:51.37 | 102139 | 124000 7 | 27:33.26 | 3:25.33 | 124001 | 139408 8 | 30:58.59 | 6:25.29 | 139409 | 168312 9 | 37:24.13 | 5:57.02 | 168313 | 195089 10 | 43:21.15 | 3:51.30 | 195090 | 212444 11 | 47:12.45 | 3:55.15 | 212445 | 230084 12 | 51:07.60 | 3:33.41 | 230085 | 246100 13 | 54:41.26 | 5:43.38 | 246101 | 271863 14 | 60:24.64 | 6:54.45 | 271864 | 302958 15 | 67:19.34 | 6:48.71 | 302959 | 333629
Характеристики диапазона извлечения и сообщения об ошибках
Выбранный диапазон
Имя файла C:\111\nova\Tapolsky - Rankom.wav
Пиковый уровень 97.9 % Скорость извлечения 16.1 X Качество диапазона 100.0 % CRC теста 16DAAC20 CRC копии 16DAAC20 Копирование... OK
Ошибок не произошло
AccurateRip: сводка
Трек 1 : извлечено точно (доверие 1) [6EE1CF0B] (AR v2)Трек 2 : извлечено точно (доверие 1) [187A3E61] (AR v2)Трек 3 : извлечено точно (доверие 1) [9468EEFC] (AR v2)Трек 4 : извлечено точно (доверие 1) [D5E5E9E4] (AR v2)Трек 5 : извлечено точно (доверие 1) [E582C7DE] (AR v2)Трек 6 : извлечено точно (доверие 1) [C1CFB589] (AR v2)Трек 7 : извлечено точно (доверие 1) [AEF9036C] (AR v2)Трек 8 : извлечено точно (доверие 1) [1CA5486A] (AR v2)Трек 9 : извлечено точно (доверие 1) [0AF879CA] (AR v2)Трек 10 : извлечено точно (доверие 1) [EA530BF2] (AR v2)Трек 11 : извлечено точно (доверие 1) [621D2C24] (AR v2)Трек 12 : извлечено точно (доверие 1) [F3D0A4AC] (AR v2)Трек 13 : извлечено точно (доверие 1) [03BAE0EB] (AR v2)Трек 14 : извлечено точно (доверие 1) [220FAB5B] (AR v2)Трек 15 : извлечено точно (доверие 1) [BFA76981] (AR v2)
Все треки извлечены точно
Конец отчёта
==== Контрольная сумма отчёта E31E905CF86FCBCCF89D5AFC2E940922CB97903D0B0C7A378245C90D7C576362 ====
Вы не можете начинать темы
Вы не можете отвечать на сообщения
Вы не можете редактировать свои сообщения
Вы не можете удалять свои сообщения
Вы не можете голосовать в опросах
Вы не можете прикреплять файлы к сообщениям
Вы можете скачивать файлы
!ВНИМАНИЕ!

Сайт не предоставляет электронные версии произведений, а занимается лишь коллекционированием и каталогизацией ссылок, присылаемых и публикуемых на форуме нашими читателями. Если вы являетесь правообладателем какого-либо представленного материала и не желаете, чтобы ссылка на него находилась в нашем каталоге, свяжитесь с нами, и мы незамедлительно удалим ее. Файлы для обмена на трекере предоставлены пользователями сайта, и администрация не несет ответственности за их содержание. Просьба не заливать файлы, защищенные авторскими правами, а также файлы нелегального содержания!

Искали программы, игры, дополнения, музыка mp3, аниме, аудио книги, журналы? Добро пожаловать на свободный торрент трекер Torrents, у нас можно скачать бесплатно, без смс и регистрации и прочих ограничений лучшие, отборные сборки программ, игр. Скачать торрентом не составит труда даже не опытному пользователю. Раздачи ежедневно обновляются, только лучшие и качественные раздачи, подробные описания и скриншоты. Огромная коллекция программ для работы со звуком, графикой, дизайном, а так же множество плагинов и инструментов к ним с подробной инструкцией и рекомендациями. Прошивки для навигаторов, карты. Разнообразные игры, для Windows, Linux. В коллекцие есть и старые игры любых жанров, Rpg, Action, Shooter, strategy Множество дополнений, модификаций, сценариев для популярных игр в жанре экш, рпг, гонки, стратегии, логические игры. Множество аддонов и сценариев для Microsoft Flight Simulator Большая коллекция книг, учебников. Если нет возможности купить печатное издание - смело скачивайте цифровую версию книги или, быть может, журнала. Не любите читать - можно загрузить бесплатно аудикнигу. Для веб дизайнеров и программистов так же найдется множество специализированного софта, таких как: редакторы с подсветкой, среды программирования, компоненты, системы управления базами данных, разнообразные скрипты и шаблоны. Не так давно у нас появился материал для автолюбителей и владельцев мото - оригинальные и неоригинальные каталоги запчастей, книги и журналы по ремонту и обслуживанию, видеоуроки, статьи по чип тюнингу, прошивкам. Процедура получения контента элементарная, достаточно просто скачать торрент файл и добавить его в загрузку в вашем торрент клиенте. Если у вас нет специального торрент клиента, вы можете его скачать у нас.

Program Evaluation and Review Technique (pert) Analysis | Заборонено до пересилання | Melora Hardin